<?xml version="1.0" standalone="no"?>
<!DOCTYPE svg PUBLIC "-//W3C//DTD SVG 1.1//EN" "http://www.w3.org/Graphics/SVG/1.1/DTD/svg11.dtd">
<svg xmlns="http://www.w3.org/2000/svg">
<metadata>Copyright (C) 2019 by original authors @ fontello.com</metadata>
<defs>
<font id="wimpy" horiz-adv-x="1000" >
<font-face font-family="wimpy" font-weight="400" font-stretch="normal" units-per-em="1000" ascent="850" descent="-150" />
<missing-glyph horiz-adv-x="1000" />
<glyph glyph-name="1" unicode="&#x21;" d="M727-25c82 0 148 66 148 148v602l-172 0v-578h-125v578h-156v-578h-125v578h-172v-602c0-82 66-148 148-148l454 0z" horiz-adv-x="1000" />

<glyph glyph-name="star" unicode="&#x2a;" d="M500 815l113-345 363 0-294-214 113-346-295 214-294-214 113 346-295 214 364 0 112 345z" horiz-adv-x="1000" />

<glyph glyph-name="+" unicode="&#x2b;" d="M563 288v-250h-125l0 250-250 0 0 125 250 0 0 250h125v-250l250 0v-125l-250 0z" horiz-adv-x="1000" />

<glyph glyph-name="-" unicode="&#x2d;" d="M234 258l0 184 532 0v-184h-532z" horiz-adv-x="1000" />

<glyph glyph-name="b_" unicode="&#x2e;" d="M750 350c0-138-112-250-250-250s-250 112-250 250c0 138 112 250 250 250s250-112 250-250z" horiz-adv-x="1000" />

<glyph glyph-name="@" unicode="&#x31;" d="M500 530c243 0 390-129 390-227-28 33-87 87-207 116 7-19 12-40 12-62 0-107-89-193-196-193-107 0-193 86-193 193 0 22 4 43 11 62-120-29-179-83-207-116 0 98 147 227 390 227z m-423-221c48-54 166-199 423-199 257 0 375 145 423 199 0 67-141 281-423 281-282 0-423-214-423-281z m499 135c-35 0-64-29-64-64 0-36 29-65 64-65 36 0 65 29 65 65 0 35-29 64-65 64z" horiz-adv-x="1000" />

<glyph glyph-name="#" unicode="&#x32;" d="M77 309c48-54 166-199 423-199 257 0 375 145 423 199 0 67-141 281-423 281-282 0-423-214-423-281z" horiz-adv-x="1000" />

<glyph glyph-name="<" unicode="&#x3c;" d="M578 22l-328 328 328 328 93-93-235-235 235-234-93-94 0 0z" horiz-adv-x="1000" />

<glyph glyph-name=">" unicode="&#x3e;" d="M422 22l-94 94 235 234-235 235 94 93 328-328-328-328 0 0z" horiz-adv-x="1000" />

<glyph glyph-name="h" unicode="&#x3f;" d="M339 687c40 25 89 38 146 38 76 0 139-18 190-54 50-37 75-90 75-162 0-43-11-80-33-110-12-18-37-41-73-70l-36-27c-19-15-32-33-38-53-4-13-7-33-7-60h-137c2 57 8 96 17 118 8 22 31 47 67 75l37 29c12 9 21 19 29 29 13 19 20 39 20 61 0 26-8 49-23 70-14 21-42 32-81 32-39 0-67-13-83-39-16-26-24-53-24-81h-146c4 96 37 164 100 204z m84-567h151v-146h-151v146z" horiz-adv-x="1000" />

<glyph glyph-name="a_" unicode="&#x41;" d="M267 689v-239-304c-17 5-36 8-56 7-80-4-144-60-144-127 0-66 64-117 144-114 79 4 144 60 144 127v441c84 27 188 51 360 64v-300c-18 5-37 8-57 7-80-4-144-60-144-127 0-66 64-117 144-114 80 4 144 60 144 127v413 238c-295-16-419-56-535-99z" horiz-adv-x="1000" />

<glyph glyph-name="c_" unicode="&#x43;" d="M719 53c0-34 28-62 62-62s63 28 63 62l0 0c0 35-28 63-63 63s-62-28-62-63z m-500 0c0-34 28-62 62-62s63 28 63 62l0 0c0 35-28 63-63 63s-62-28-62-63z m625 297v281h-610c0 52-42 94-93 94v-47c26 0 47-21 47-47l46-312c-10 0-46-13-46-63 0-51 42-93 93-93h563v46h-563c-26 0-47 21-47 47 0 0 0 0 0 0l610 94z" horiz-adv-x="1000" />

<glyph glyph-name="d_" unicode="&#x44;" d="M625 288h250l-375-376-375 376h250l0 500h250v-500z" horiz-adv-x="1000" />

<glyph glyph-name="f_" unicode="&#x46;" d="M813-25l171 438h-750l-171-438h750z m-641 531l-109-531 0 750h281l109-125h360v-94h-641z" horiz-adv-x="1000" />

<glyph glyph-name="g_" unicode="&#x47;" d="M250 38h-125v125h125v-125z m0 375h-125v-125h125v125z m0 250h-125v-125h125v125z m125-375h500v125h-500v-125z m0-250h500v125h-500v-125z m0 625v-125h500v125h-500z" horiz-adv-x="1000" />

<glyph glyph-name="i_" unicode="&#x49;" d="M453 397h-328v328h328v-328z m422 328h-328v-328h328v328z m-422-422h-328v-328h328v328z m422 0h-328v-328h328v328z" horiz-adv-x="1000" />

<glyph glyph-name="l_" unicode="&#x4c;" d="M844 131l-219 157v-94h-166c-26 81-103 140-193 140-113 0-203-91-203-203s90-203 203-203c90 0 167 59 193 141h166v-94l219 156z m-531-140h-94v281h94v-281z m312 640h-250v94l-219-156 219-156v93h250c86 0 156-70 156-156h125c0 155-126 281-281 281z" horiz-adv-x="1000" />

<glyph glyph-name="m_" unicode="&#x4d;" d="M0 475h234l265 250v-750l-265 250h-234v250z m1000-125c0 138-56 263-147 354l-44-44c80-80 129-189 129-310 0-121-49-230-129-309l44-45c91 91 147 216 147 354z m-156 0c0 95-39 181-101 243l-44-44c51-51 82-121 82-199 0-78-31-148-82-199l44-44c62 62 101 148 101 243z m-156 0c0 52-22 99-56 133l-44-44c23-23 37-54 37-89 0-35-14-66-37-89l44-44c34 34 56 81 56 133z" horiz-adv-x="1000" />

<glyph glyph-name="p" unicode="&#x50;" d="M313 538l500-188-500-187v375z" horiz-adv-x="1000" />

<glyph glyph-name="r_" unicode="&#x52;" d="M531 413l118 118c-40 33-92 53-149 53-129 0-234-105-234-234s105-234 234-234c96 0 179 58 215 140h116c-41-144-174-250-331-250-190 0-344 154-344 344 0 190 154 344 344 344 87 0 166-33 227-86l117 117v-312h-313z" horiz-adv-x="1000" />

<glyph glyph-name="s_" unicode="&#x53;" d="M813-56l-172 172 93 93 172-171v-94h-93z m-375 781c-173 0-313-140-313-312 0-173 140-313 313-313 172 0 312 140 312 313 0 172-140 312-312 312z m0-531c-121 0-219 98-219 219s98 218 219 218c120 0 218-98 218-218s-98-219-218-219z" horiz-adv-x="1000" />

<glyph glyph-name="v_" unicode="&#x56;" d="M0-25v751l1000-1v-750h-1000z m266 125l562 250-562 250v-500z" horiz-adv-x="1000" />

<glyph glyph-name="w_" unicode="&#x57;" d="M375 413l-187 187-125-125v313h312l-125-125 188-188-63-62z m250 0l188 187 125-125v313l-313 0 125-125-187-188 62-62z m-250-125l-187-188-125 125v-313h312l-125 126 188 187-63 63z m188-63l187-187-125-126h313v313l-125-125-188 188-62-63z" horiz-adv-x="1000" />

<glyph glyph-name="x_" unicode="&#x58;" d="M625 350l313-312-125-126-313 313-312-313-125 126 312 312-312 313 125 125 312-313 313 313 125-125-313-313z" horiz-adv-x="1000" />

<glyph glyph-name="a" unicode="&#x61;" d="M584 707c-21 19-32 39-42 55-17 26-30 24-30 24-22 0-33-22-33-46v-574c-22 4-48 6-77 7-102 5-186-54-186-129 0-84 58-130 157-130 123 0 185 105 185 200v408c45-7 184-65 184-184 0-45-13-77-23-90-4-6-19-23-12-35 5-10 24-9 37 3 39 37 103 96 103 202 0 171-233 259-263 289z" horiz-adv-x="1000" />

<glyph glyph-name="b" unicode="&#x62;" d="M750 663v-625l-687 312 687 313z" horiz-adv-x="1000" />

<glyph glyph-name="c" unicode="&#x63;" d="M500 788c-242 0-437-196-437-438s195-438 437-438 438 196 438 438-196 438-438 438z m-312-438c0 173 139 313 312 313 58 0 112-16 159-44l-428-428c-28 47-43 101-43 159z m312-312c-58 0-113 16-160 44l429 428c27-47 44-101 44-160 0-173-140-312-313-312z" horiz-adv-x="1000" />

<glyph glyph-name="d" unicode="&#x64;" d="M125 538h750l-375-391-375 391z" horiz-adv-x="1000" />

<glyph glyph-name="e" unicode="&#x65;" d="M844 850c86 0 156-70 156-156 0-35-12-68-31-94l-63-62-218 218 62 63c26 19 59 31 94 31z m-781-719l-63-281 281 62 578 579-218 218-578-578z m636 364l-438-438-54 54 438 438 54-54z" horiz-adv-x="1000" />

<glyph glyph-name="f" unicode="&#x66;" d="M501 343l0 0 280 148v-516h-562v750h359l203-234z m218-305v406h-188v219h-250v-625h438z" horiz-adv-x="1000" />

<glyph glyph-name="g" unicode="&#x67;" d="M813 663v-125h-625v125h625z m-625-250v-125h625v125h-625z m0-250v-125h625v125h-625z" horiz-adv-x="1000" />

<glyph glyph-name="h_" unicode="&#x68;" d="M938 272v156h-135c-8 29-19 56-34 81l96 95-111 111-95-96c-25 15-52 26-81 34v135h-156v-135c-29-8-56-19-81-34l-95 96-111-111 96-95c-15-25-26-52-34-81l-134 0v-156h134c8-29 19-56 34-81l-96-95 111-111 95 96c25-15 52-26 81-34l0-135 156 0v135c29 8 56 19 81 34l95-96 111 111-96 95c15 25 26 52 34 81h135z m-438-94c-95 0-172 77-172 172 0 95 77 172 172 172 95 0 172-77 172-172 0-95-77-172-172-172z" horiz-adv-x="1000" />

<glyph glyph-name="i" unicode="&#x69;" d="M494 311l0 0 444 39c0-242-196-438-438-438s-437 196-437 438 195 438 437 438 438-196 438-438z m53 203c47 0 86 39 86 86s-39 86-86 86-86-39-86-86 39-86 86-86z m15-391c-18-1-31 3-37 11-6 8-7 22-2 42 7 25 14 52 22 78 8 31 18 64 25 94 11 43 6 77-12 100-18 23-49 35-89 35-47 0-97-20-124-30l-9-4v-65l11 6c8 4 31 14 44 15 2 0 3 0 5 0 7 0 22-2 30-12 7-8 8-22 4-41-7-31-20-75-31-114-6-23-12-44-16-58-10-38-4-74 15-98 18-24 48-37 86-37 41 0 114 23 130 33l3 2v63l-11-5c-12-5-35-14-44-15z" horiz-adv-x="1000" />

<glyph glyph-name="k" unicode="&#x6a;" d="M797 319l94-156-421 187 421 188v-375z m-345 219l-421-188 421-187v375z" horiz-adv-x="1000" />

<glyph glyph-name="j" unicode="&#x6b;" d="M109 538l421-188-421-187v375z m439-375l421 187-421 188v-375z" horiz-adv-x="1000" />

<glyph glyph-name="l" unicode="&#x6c;" d="M906 350h-125c0 86-70 156-156 156h-250v-93l-219 156 219 156v-94h250c155 0 281-126 281-281z m-531-281h250v-94l219 156-219 157v-94h-250c-86 0-156 70-156 156h-125c0-155 126-281 281-281z" horiz-adv-x="1000" />

<glyph glyph-name="m" unicode="&#x6d;" d="M844 350l94-94-32-31-93 94-94-94-31 31 93 94-93 94 31 31 94-94 93 94 32-31-94-94z m-844-125h234l265-250v750l-265-250h-234v-250z" horiz-adv-x="1000" />

<glyph glyph-name="n" unicode="&#x6e;" d="M188 600l531-234 0 234h94v-500h-94v234l-531-234v500z" horiz-adv-x="1000" />

<glyph glyph-name="o" unicode="&#x6f;" d="M813 100l-532 234 0-234h-93v500h93l0-234 532 234v-500z" horiz-adv-x="1000" />

<glyph glyph-name="p_" unicode="&#x70;" d="M188 663l750-313-750-312v625z" horiz-adv-x="1000" />

<glyph glyph-name="q" unicode="&#x71;" d="M188 38v625h187v-625h-187z m625 0v625h-188v-625h188z" horiz-adv-x="1000" />

<glyph glyph-name="r" unicode="&#x72;" d="M266 335c-4 65 19 131 68 181 59 59 142 80 218 63l86 86c-126 55-278 31-381-72-72-72-105-167-100-261l-121-4 177-177 188 188-135-4z m521 214l-188-188 135 4c4-65-19-131-68-181-59-59-142-80-218-63l-86-86c126-55 278-31 381 72 72 72 105 167 100 261l121 4-177 177z" horiz-adv-x="1000" />

<glyph glyph-name="s" unicode="&#x73;" d="M813 38h-625v625h625v-625z" horiz-adv-x="1000" />

<glyph glyph-name="t" unicode="&#x74;" d="M547 517h-93v333h93v-333l0 0z m-21-667v333h-50v-333h50l0 0z m204 56l41 22-166 288-41-23 166-287 0 0z m-350 568l74 42-166 288-75-42 167-288 0 0z m-45-73l39 67-287 166-39-68 287-165 0 0z m588-319l21 36-287 166-21-37 287-165 0 0z m78 249v38h-331v-38h331l0 0z m-670-16v70h-330v-70h330l0 0z m-247-242l287 165-33 55-287-165 33-55 0 0z m572 346l287 166-18 30-287-165 18-31 0 0z m-59 69l166 288-25 14-166-288 25-14 0 0z m-322-585l166 288-49 28-166-288 49-28 0 0z" horiz-adv-x="1000" />

<glyph glyph-name="u" unicode="&#x75;" d="M875 225h-750l375 391 375-391z" horiz-adv-x="1000" />

<glyph glyph-name="v" unicode="&#x76;" d="M313 538l406-188-406-187v375z m687-562l-1 749-999-1 1-749 999 1 0 0z m-937 687h875v-625h-875v625z" horiz-adv-x="1000" />

<glyph glyph-name="w" unicode="&#x77;" d="M125 788l188-188 125 125v-312h-313l125 125-187 187 62 63z m750 0l-187-188-125 125v-312h312l-125 125 188 187-63 63z m-750-876l188 188 125-125v313h-313l125-125-187-188 62-63z m813 63l-188 188 125 125h-312v-313l125 125 187-188 63 63z" horiz-adv-x="1000" />

<glyph glyph-name="x" unicode="&#x78;" d="M588 350l177-177-88-88-177 177-177-177-88 88 177 177-177 177 88 88 177-177 177 177 88-88-177-177z" horiz-adv-x="1000" />

<glyph glyph-name="y" unicode="&#x79;" d="M938 725l-500-750-313 313 94 125 187-204 407 610 125-94z" horiz-adv-x="1000" />

<glyph glyph-name="z" unicode="&#x7a;" d="M109 225h172l282 375h171v78l204-140-204-141v78h-109l-281-375h-235v125z m408-64l46-61h171v-78l204 141-204 140v-78h-109l-31 42-77-106z m-126 377c0 0-47 62-47 62h-235v-125h172l34-44 76 107z" horiz-adv-x="1000" />

<glyph glyph-name="$" unicode="&#xe833;" d="M886 736v-538h-538v538h538z m-214-214v127h-109v-127h-127v-109h127v-127h109v127h127v109h-127z m-445-445v425h-113v-538h538v113h-425z" horiz-adv-x="1000" />
</font>
</defs>
</svg>
